FACE BOOK

IBT-102果凍機 播放AVI檔沒聲音(試過5部)附檔案格式

向下

IBT-102果凍機 播放AVI檔沒聲音(試過5部)附檔案格式

發表  Yeming 于 周六 12月 29, 2012 1:32 pm

IBT-102果凍機 播放AVI檔沒聲音(試過5部)
好怪喔~~

General
Complete name :Taken2.avi
Format : AVI
Format/Info : Audio Video Interleave
File size : 1.36 GiB
Duration : 1h 32mn
Overall bit rate : 2 095 Kbps
Writing application : VirtualDubMod 1.5.10.2 (build 2542/release)
Writing library : VirtualDubMod build 2542/release
Video #0
ID : 0
Format : MPEG-4 Visual
Format profile : Advanced Simple@L5
Format settings, BVOP : 4
Format settings, QPel : No
Format settings, GMC : No warppoints
Format settings, Matrix : Default (H.263)
Muxing mode : Packed bitstream
Codec ID : XVID
Codec ID/Hint : XviD
Duration : 1h 32mn
Bit rate : 1 704 Kbps
Width : 720 pixels
Height : 304 pixels
Display aspect ratio : 2.35:1
Frame rate : 23.976 fps
Color space : YUV
Chroma subsampling : 4:2:0
Bit depth : 8 bits
Scan type : Progressive
Compression mode : Lossy
Bits/(Pixel*Frame) : 0.325
Stream size : 1.10 GiB (81%)
Writing library : XviD 64
Audio #1
ID : 1
Format : AC-3
Format/Info : Audio Coding 3
Mode extension : CM (complete main)
Format settings, Endianness : Big
Codec ID : 2000
Duration : 1h 32mn
Bit rate mode : Constant
Bit rate : 384 Kbps
Channel(s) : 6 channels
Channel positions : Front: L C R, Side: L R, LFE
Sampling rate : 44.1 KHz
Bit depth : 16 bits
Compression mode : Lossy
Stream size : 253 MiB (18%)
Alignment : Split accross interleaves
Interleave, duration : 42 ms (1.01 video frame)
Interleave, preload duration : 500 ms

Yeming

文章數 : 4
注冊日期 : 2012-12-19

回頂端 向下

回復: IBT-102果凍機 播放AVI檔沒聲音(試過5部)附檔案格式

發表  比特小幫手 于 周三 1月 02, 2013 12:59 pm

Yeming您好

目前聲音支援是沒有支援AC3的
所以沒有聲音是正常的
不過我們現在正在努力處理這個問題
請在稍等一些時間
讓我們為您找出處理方法
謝謝您
祝您新年快樂
avatar
比特小幫手

文章數 : 208
注冊日期 : 2012-08-01

回頂端 向下

回復: IBT-102果凍機 播放AVI檔沒聲音(試過5部)附檔案格式

發表  Yeming 于 周四 1月 24, 2013 2:55 pm

比特小幫手 寫到:Yeming您好

目前聲音支援是沒有支援AC3的
所以沒有聲音是正常的
不過我們現在正在努力處理這個問題
請在稍等一些時間
讓我們為您找出處理方法
謝謝您
祝您新年快樂

請問一下有解了嗎???
還是要一直等等等呢???

Yeming

文章數 : 4
注冊日期 : 2012-12-19

回頂端 向下

回復: IBT-102果凍機 播放AVI檔沒聲音(試過5部)附檔案格式

發表  比特小幫手 于 周四 1月 24, 2013 2:59 pm

Yeming 寫到:
比特小幫手 寫到:Yeming您好

目前聲音支援是沒有支援AC3的
所以沒有聲音是正常的
不過我們現在正在努力處理這個問題
請在稍等一些時間
讓我們為您找出處理方法
謝謝您
祝您新年快樂

請問一下有解了嗎???
還是要一直等等等呢???

您好
目前以有網友釋出補丁程式
在原廠跟音訊解碼的授權完成之前
可以先做尋找使用
謝謝您
祝您一切順心
avatar
比特小幫手

文章數 : 208
注冊日期 : 2012-08-01

回頂端 向下

回復: IBT-102果凍機 播放AVI檔沒聲音(試過5部)附檔案格式

發表  Yeming 于 周五 4月 12, 2013 12:31 pm

比特小幫手 寫到:
Yeming 寫到:
比特小幫手 寫到:Yeming您好

目前聲音支援是沒有支援AC3的
所以沒有聲音是正常的
不過我們現在正在努力處理這個問題
請在稍等一些時間
讓我們為您找出處理方法
謝謝您
祝您新年快樂

請問一下有解了嗎???
還是要一直等等等呢???

您好
目前以有網友釋出補丁程式
在原廠跟音訊解碼的授權完成之前
可以先做尋找使用
謝謝您
祝您一切順心

你好請問一下~原廠跟音訊解碼的授權OK了嗎?
或是是否可以 請問一下你所說的補丁程式嗎???
謝謝

Yeming

文章數 : 4
注冊日期 : 2012-12-19

回頂端 向下

回復: IBT-102果凍機 播放AVI檔沒聲音(試過5部)附檔案格式

發表  比特小幫手 于 周四 五月 16, 2013 10:17 am

已私訊
謝謝您

_________________


公司 Tel:(02)8221-8500
傳真Fax:(02)8221-7600
官方網站:www.i-bt.com.tw
官方粉絲團:FB粉絲團
地 址:新北市中和區中正路866號17樓之8
avatar
比特小幫手

文章數 : 208
注冊日期 : 2012-08-01

回頂端 向下

回頂端


 
這個論壇的權限:
無法 在這個版面回復文章